英文小说 | Temporada 5 | file_downloadTélécharger

ShareSpark.net

:::: Bollywood Zone => Pakistani / Urdu Movies => Topic started by: Rabasha on September 11, 2018, 12:46:14 PM

Title: Ishq De Mujram (2018) - HD Full Stage Show [720p]
Post by: Rabasha on September 11, 2018, 12:46:14 PM
(http://s33.postimg.cc/gr2nrx3fj/maxresdefault.jpg)




(http://s7.postimage.org/5yqcydr63/Info.png)

Release Info:
Code: [Select]
Complete name                            : Ishq_De_Mujram_2018.HD.Full.Stage.Show.720p.By.Rj.Rabasha.mp4
Format                                   : MPEG-4
Format profile                           : Base Media / Version 2
Codec ID                                 : mp42 (isom/mp42)
File size                                : 956 MiB
Duration                                 : 1 h 31 min
Overall bit rate mode                    : Variable
Overall bit rate                         : 1 462 kb/s
Encoded date                             : UTC 2018-04-27 08:02:02
Tagged date                              : UTC 2018-04-27 08:02:02
gsst                                     : 0
gstd                                     : 5484878

Video
ID                                       : 1
Format                                   : AVC
Format/Info                              : Advanced Video Codec
Format profile                           : [email protected]
Format settings                          : CABAC / 3 Ref Frames
Format settings, CABAC                   : Yes
Format settings, ReFrames                : 3 frames
Codec ID                                 : avc1
Codec ID/Info                            : Advanced Video Coding
Duration                                 : 1 h 31 min
Bit rate                                 : 1 333 kb/s
Width                                    : 1 280 pixels
Height                                   : 720 pixels
Display aspect ratio                     : 16:9
Frame rate mode                          : Constant
Frame rate                               : 25.000 FPS
Color space                              : YUV
Chroma subsampling                       : 4:2:0
Bit depth                                : 8 bits
Scan type                                : Progressive
Bits/(Pixel*Frame)                       : 0.058
Stream size                              : 871 MiB (91%)
Encoded date                             : UTC 2018-04-27 08:02:02
Tagged date                              : UTC 2018-04-27 08:02:02
Color range                              : Limited
Color primaries                          : BT.709
Transfer characteristics                 : BT.709
Matrix coefficients                      : BT.709

Audio
ID                                       : 2
Format                                   : AAC
Format/Info                              : Advanced Audio Codec
Format profile                           : LC
Codec ID                                 : mp4a-40-2
Duration                                 : 1 h 31 min
Bit rate mode                            : Variable
Bit rate                                 : 126 kb/s
Channel(s)                               : 2 channels
Channel positions                        : Front: L R
Sampling rate                            : 44.1 kHz
Frame rate                               : 43.066 FPS (1024 SPF)
Compression mode                         : Lossy
Stream size                              : 82.1 MiB (9%)
Language                                 : Punjabi
Encoded date                             : UTC 2018-04-27 08:02:02
Tagged date                              : UTC 2018-04-27 08:02:02





(http://s7.postimage.org/wl2tncvd7/Screens.png)

(http://s33.postimg.cc/wcjzc1ffj/Ishq_De_Mujram_2018.HD.Full.Stage.Show.720p.By.Rj.Rabasha.jpg)





(http://s10.postimage.org/hrk4d9ke1/Download.png)

(http://s22.postimg.cc/qjwjhlhwh/Openload.png)

Code: [Select]
http://openload.co/f/LMIHqhs-qOs

(http://s22.postimg.cc/u3ih7e56p/Bdupload.png)

Code: [Select]
http://bdupload.info/fge8ouuzfj98

(http://s22.postimg.cc/4kq4udtch/Indishare.png)

Code: [Select]
http://www.indishare.me/69p65dac4cun

(http://s22.postimg.cc/mnj7lm4mp/Uptobox.png)

Code: [Select]
http://uptobox.com/obgyhkqr2iba

(http://s22.postimg.cc/xad0r1kht/Vidoza.png)
(http://s22.postimg.cc/b0lbfe2xd/tumblr_inline_mnux2q0_S0d1qz4rgp.gif)

Code: [Select]
http://vidoza.net/cfopu15dov9m.html






(http://s13.postimg.org/twhn850o7/thankyou.png)
(http://img8.uploadhouse.com/fileuploads/22027/22027008940ea7cb0c4ba63f5b988a86e7652702.gif)
Title: Re: Ishq De Mujram (2018) - HD Full Stage Show [720p]
Post by: jann_ali on October 20, 2018, 02:32:24 AM
:thank::thank::thank::thank::thank: