IMDb: 4 SD At Your Own Risk | Die Geschichte Chinas (6) | Guru (2018 - South Hindi Dubbed) - 1CD - HDTVRip[Mp4 - AAC3(5.1Ch)]

+ ShareSpark.net »  :::: Bollywood Zone » Pakistani / Urdu Movies
|- Lahore Qalandar Sarey Andar (2018) - HD Full Stage Show [720p]


HDFC 10% Off

Lahore Qalandar Sarey Andar (2018) - HD Full Stage Show [720p]

0 Members and 1 Guest are viewing this topic.

September 11, 2018, 12:08:27 PM
  • Team SSX
  • Special Member
  • ***
  • Topic Author
  • Thank You: 124
  • Reputation: 19
  • Activity:
    18.4%
  • Country: pk
  • Posts: 722
  • Topics: 494
  • Join Date: Nov 2012
  • Upgrade My Reputation







Release Info:
Code: [Select]
Complete name                            : Lahore.Qalandar.Sarey.Andar.2018.HD.Full.Stage.Show.720p.By.Rj.Rabasha.mp4
Format                                   : MPEG-4
Format profile                           : Base Media / Version 2
Codec ID                                 : mp42 (isom/mp42)
File size                                : 573 MiB
Duration                                 : 1 h 16 min
Overall bit rate mode                    : Variable
Overall bit rate                         : 1 046 kb/s
Encoded date                             : UTC 2018-06-16 02:44:34
Tagged date                              : UTC 2018-06-16 02:44:34
gsst                                     : 0
gstd                                     : 4593580

Video
ID                                       : 1
Format                                   : AVC
Format/Info                              : Advanced Video Codec
Format profile                           : [email protected]
Format settings                          : CABAC / 3 Ref Frames
Format settings, CABAC                   : Yes
Format settings, ReFrames                : 3 frames
Codec ID                                 : avc1
Codec ID/Info                            : Advanced Video Coding
Duration                                 : 1 h 16 min
Bit rate                                 : 914 kb/s
Width                                    : 1 280 pixels
Height                                   : 720 pixels
Display aspect ratio                     : 16:9
Frame rate mode                          : Constant
Frame rate                               : 25.000 FPS
Color space                              : YUV
Chroma subsampling                       : 4:2:0
Bit depth                                : 8 bits
Scan type                                : Progressive
Bits/(Pixel*Frame)                       : 0.040
Stream size                              : 501 MiB (87%)
Encoded date                             : UTC 2018-06-16 02:44:34
Tagged date                              : UTC 2018-06-16 02:44:34
Color range                              : Limited
Color primaries                          : BT.709
Transfer characteristics                 : BT.709
Matrix coefficients                      : BT.709

Audio
ID                                       : 2
Format                                   : AAC
Format/Info                              : Advanced Audio Codec
Format profile                           : LC
Codec ID                                 : mp4a-40-2
Duration                                 : 1 h 16 min
Source duration                          : 1 h 16 min
Bit rate mode                            : Variable
Bit rate                                 : 128 kb/s
Channel(s)                               : 2 channels
Channel positions                        : Front: L R
Sampling rate                            : 44.1 kHz
Frame rate                               : 43.066 FPS (1024 SPF)
Compression mode                         : Lossy
Stream size                              : 70.1 MiB (12%)
Source stream size                       : 70.1 MiB (12%)
Language                                 : Punjabi
Encoded date                             : UTC 2018-06-16 02:44:34
Tagged date                              : UTC 2018-06-16 02:44:34

















Code: [Select]
http://openload.co/f/btGwFsgfePA



Code: [Select]
http://bdupload.info/sgcgrx5t4owq



Code: [Select]
http://www.indishare.me/tiifkt9tlfbj



Code: [Select]
http://uptobox.com/990oo8w6udgq




Code: [Select]
http://vidoza.net/eegx1fj1n8tg.html







Share this topic on FacebookShare this topic on GoogleShare this topic on MySpaceShare this topic on TwitterShare this topic on Yahoo



Thanks given by:


October 20, 2018, 02:28:25 AM
Reply #1
  • Hot Member
  • ***
  • Thank You: 0
  • Reputation: 3
  • Activity:
    2.6%
  • Posts: 582
  • Topics: 0
  • Join Date: Sep 2012
  • ShareSpark Member

Tags: stageshow 
 

Related Topics

  Subject / Started by Replies Last post
0 Replies
376 Views
Last post September 05, 2018, 02:42:08 AM
by Rabasha
0 Replies
361 Views
Last post September 05, 2018, 03:01:27 AM
by Rabasha
0 Replies
374 Views
Last post September 05, 2018, 03:14:29 AM
by Rabasha
0 Replies
402 Views
Last post September 05, 2018, 03:25:24 AM
by Rabasha
0 Replies
788 Views
Last post September 05, 2018, 04:04:28 AM
by Rabasha




Back to top