1x46 Mi hermano es un clon | The.Big.Bang.Theory.S11E02.Das.Romulaner-Getraenk.German.Dubbed.DL.AmazonHD.x264-TVS | Tiểu Tử Siêu Võ Thuật - Phim Hành Động Võ Thuật Hay - Full HD Thuyết Minh

+ ShareSpark.net »  :::: Dubbed Zone (Dubbed English in Hindi) » English Movies Dubbed in Hindi » Animation Movies
|- The Swan Princess 1994 x264 720p Esub HD Dual Audio English Hindi GOPISAHI


TV and Appliances

The Swan Princess 1994 x264 720p Esub HD Dual Audio English Hindi GOPISAHI

0 Members and 1 Guest are viewing this topic.

November 08, 2018, 04:56:45 PM
  • Legend Member
  • ****
  • Topic Author
  • Thank You: 1364
  • Reputation: 524
  • Activity:
    100%
  • Country: pk
  • Posts: 1677
  • Topics: 986
  • Join Date: Mar 2015
  • ShareSpark Member
The Swan Princess 1994 x264 720p Esub HD Dual Audio English Hindi GOPISAHI









Format : Matroska
Format version : Version 4 / Version 2
File size : 570 MiB
Duration : 1 h 29 min
Overall bit rate : 894 kb/s
Movie name : The Swan Princess 1994 GOPISAHI

Video
Format : AVC
Format/Info : Advanced Video Codec
Codec ID : V_MPEG4/ISO/AVC
Duration : 1 h 29 min
Bit rate : 699 kb/s
Width : 1 278 pixels
Height : 720 pixels
Display aspect ratio : 16:9
Frame rate mode : Constant
Frame rate : 23.976 (24000/1001) FPS
Color space : YUV
Chroma subsampling : 4:2:0
Bit depth : 8 bits
Scan type : Progressive
Bits/(Pixel*Frame) : 0.032
Stream size : 446 MiB (78%)
Title : GOPISAHI
Writing library : x264 core 155 r2901 7d0ff22

Audio #1
Format : AAC
Duration : 1 h 29 min
Bit rate : 96.0 kb/s
Channel(s) : 2 channels
Channel positions : Front: L R
Sampling rate : 48.0 kHz
Frame rate : 46.875 FPS (1024 SPF)
Compression mode : Lossy
Delay relative to video : -45 ms
Stream size : 61.1 MiB (11%)
Title : GOPISAHI
Language : Hindi

Audio #2
Format : AAC
Format/Info : Advanced Audio Codec
Duration : 1 h 29 min
Bit rate : 96.0 kb/s
Channel(s) : 2 channels
Channel positions : Front: L R
Sampling rate : 48.0 kHz
Frame rate : 46.875 FPS (1024 SPF)
Compression mode : Lossy
Delay relative to video : -23 ms
Stream size : 61.1 MiB (11%)
Title : GOPISAHI
Language : English

Text
Language : English





 :ss:












 :download:


























Share this topic on FacebookShare this topic on GoogleShare this topic on MySpaceShare this topic on TwitterShare this topic on Yahoo




Tags:
 

Related Topics





Back to top