Flying Ambulance Emergency Rescue | Miracles | Case 1_Final Report

+ ShareSpark.net »  :::: Dubbed Zone (Dubbed English in Hindi) » English Movies Dubbed in Hindi
|- Forrest Gump 1994 x264 720p BluRay Dual Audio English Hindi GOPISAHI


Electroncs Sale

Forrest Gump 1994 x264 720p BluRay Dual Audio English Hindi GOPISAHI

0 Members and 1 Guest are viewing this topic.

November 08, 2018, 06:28:48 PM
  • Legend Member
  • ****
  • Topic Author
  • Thank You: 1364
  • Reputation: 524
  • Activity:
    100%
  • Country: pk
  • Posts: 1677
  • Topics: 986
  • Join Date: Mar 2015
  • ShareSpark Member
Forrest Gump 1994 x264 720p BluRay Dual Audio English Hindi GOPISAHI









Format : Matroska

Format version : Version 4 / Version 2

File size : 905 MiB

Duration : 2 h 22 min

Overall bit rate : 890 kb/s

Movie name : Forrest Gump 1994 GOPISAHI


Video

Format : AVC

Format/Info : Advanced Video Codec

Codec ID : V_MPEG4/ISO/AVC

Duration : 2 h 22 min

Bit rate : 742 kb/s

Width : 1 280 pixels

Height : 544 pixels

Display aspect ratio : 2.35:1

Frame rate mode : Constant

Frame rate : 23.976 (24000/1001) FPS

Color space : YUV

Chroma subsampling : 4:2:0

Bit depth : 8 bits

Scan type : Progressive

Bits/(Pixel*Frame) : 0.044

Stream size : 754 MiB (83%)

Title : GOPISAHI

Writing library : x264 core 120 r2164 da19765


Audio #1

Format : AAC

Duration : 2 h 15 min

Bit rate : 93.5 kb/s

Channel(s) : 2 channels

Channel positions : Front: L R

Sampling rate : 44.1 kHz

Frame rate : 43.066 FPS (1024 SPF)

Compression mode : Lossy

Stream size : 90.8 MiB (10%)

Title : GOPISAHI

Language : Hindi


Audio #2

Format : AAC

Duration : 2 h 22 min

Bit rate : 56.5 kb/s

Channel(s) : 2 channels

Channel positions : Front: L R

Sampling rate : 44.1 kHz

Frame rate : 43.066 FPS (1024 SPF)

Compression mode : Lossy

Stream size : 57.4 MiB (6%)

Title : GOPISAHI

Language : English





 :ss:












 :download:




























Share this topic on FacebookShare this topic on GoogleShare this topic on MySpaceShare this topic on TwitterShare this topic on Yahoo




Tags:
 

Related Topics





Back to top